영화 > 외국영화

[한글] 닌자의 나라 Mumon The Land of Stealth 2017 JAPANESE 1080p BRRip x264 A…

Total 2.5G

1. For more Exclusive & Quality Stuff Visit www.hon3yhd.to.txt (163byte)
2. Mumon The Land of Stealth 2017 JAPANESE 1080p BRRip x264 AAC - Hon3y.mkv (2.5G)
3. Torrent Seed By www.cyber-planet.in.txt (94byte)
f739f02995469261aa5a9bca06374e41_1518169668_2664.jpg

Mumon The Land of Stealth 2017 JAPANESE 1080p BRRip x264 AAC - Hon3y 


Source:Wiki 
Format : Matroska 
Format version : Version 4 / Version 2 
File size : 2.47 GiB 
Duration : 2 h 4 min 
Overall bit rate : 2 831 kb/s 
Movie name : Mumon.The.Land.of.Stealth.2017 - Hon3y 


Video 
ID : 1 
Format : AVC 
Format/Info : Advanced Video Codec 
Format profile :
Format settings, CABAC : Yes 
Format settings, RefFrames : 5 frames 
Codec ID : V_MPEG4/ISO/AVC 
Duration : 2 h 4 min 
Bit rate : 2 500 kb/s 
Width : 1 920 pixels 
Height : 800 pixels 
Display aspect ratio : 2.40:1 
Frame rate mode : Constant 
Frame rate : 23.976 (24000/1001) FPS 
Language : English 
Default : Yes 
Forced : No 
Color range : Limited 
Color primaries : BT.709 
Transfer characteristics : BT.709 
Matrix coefficients : BT.709 

Audio 
ID : 2 
Format : AAC 
Format/Info : Advanced Audio Codec 
Format profile : LC 
Codec ID : A_AAC 
Duration : 2 h 4 min 
Bit rate : 320 kb/s 
Channel(s) : 6 channels 
Channel positions : Front: L C R, Side: L R, LFE 
Sampling rate : 48.0 kHz 
Frame rate : 46.875 FPS (1024 SPF) 
Compression mode : Lossy 
Delay relative to video : 9 ms 
Stream size : 285 MiB (11%) 
Language : Japanese 
Default : Yes 
Forced : No 

Text 
ID : 3 
Format : ASS 
Codec ID : S_TEXT/ASS 
Codec ID/Info : Advanced Sub Station Alpha 
Duration : 2 h 4 min 
Bit rate : 74 b/s 
Count of elements : 1329 
Compression mode : Lossless 
Stream size : 68.2 KiB (0%) 
Language : Chinese 
Default : Yes 
Forced : No 


닌자의 나라 이가, 시모야마 가문의 적자 시모야마 헤이베(스즈키 료헤이)는 이가를 공격하는 오다 노부나가의 차남 오다 노부가츠에게 화평을 신청하러 갔다가, 닌자의 삶에 염증을 느끼고 노부가츠에게 귀의해 버린다. 그후 이가를 배신하여, 이가를 공격하자는 헤이베, 노부가치는 그의 권고를 받아들여 이가에 오다의 성을 짓게 된다.
하지만 성이 다 지어지자, 오다를 배신하고 성을 불태우는 이가의 닌자들. 그 일은 노부가츠의 심기를 건드리게 되고, 오다군은 이가를 공격하기로 한다. 결전의 그날, 막상 전투는 다가오지만 이가의 닌자들은 돈이 되지 않는 전쟁을 피해 달아가기 시작하고, 이가에는 절반의 닌자만이 남아 결전을 맞이하게 되는데…


      

자막 출처: 리아, 은류, 졍


토렌트는 토렌트 퐁! [한글] 닌자의 나라 Mumon The Land of Stealth 2017 JAPANESE 1080p BRRip x264 AAC - Hon3y 다운로드 , 토렌트 , 토렌트 퐁 , 토렌트퐁

Comments

번호 제목 날짜 마그넷
8535 [한글] 토르: 라그나로크 Thor.Ragnarok.2017.1080p.BluRay.x264.AC3-ONe 19:50
8534 [한글] 데스페라도 Desperado.1995.1080p.BluRay.H264.AAC-RARBG 19:38
8533 [한글] 로우 Raw.2016.720p+1080p.BluRay.x264-[YTS.AM] 19:37
8532 [한글] 백설공주 살인사건 The.Snow.White.Murder.Case.2014.720p.BluRay.x… 19:33
8531 [한글] 멍하고 혼돈스러운 Dazed and Confused 1993 1080p Bluray x265 10B… 19:30
8530 [한글] 호스텔 Hostel.2005.1080p.BluRay.x264-TFiN 19:29
8529 [한글] 다이어리 오브 데드 Diary.Of.The.Dead.2008.LIMITED.1080p.Bluray.… 19:28
8528 [한글] 털기 아니면 죽기: 제한시간 30분 30 Minutes or Less (2011) (1080p x2… 19:26
8527 [한글] 가을의 전설 Legends of the Fall (1994) (1080p BluRay 10-bit … 19:25
8526 [한글] 독하우스 Doghouse.2009.720p.BluRay.x264-x0r 19:23
8525 [한글] 사베지 스트리트 Savage.Streets.1984.720p.BluRay.x264-x0r 19:22
8524 [한글] 공포의 촉수 The.Nest.1988.720p.BluRay.x264-x0r 19:22
8523 [한글] 리틀 자이안트 Little.Giants.1994.720p.WEBRip.x265.AAC.2ch.HDF 19:19
8522 [한글] 블리딩 스틸 機器之血 Bleeding.Steel.2017.720p.HC.WEBRip.XviD.MP3… 18:50
8521 [자체 한글] 아름다운 별 A.Beautiful.Star.2017.720p.KOR.HDRip.H264.AAC… 17:16
8520 [한글] 어둠의 여인 Under.the.Shadow.2016.LIMITED.720p.BluRay.x264-U… 12:44
8519 [한글] 알라딘3 Aladdin.And.The.King.Of.Thieves.1996.1080p.BluRay.… 12:32
8518 [한글] 토르: 라그나로크 Thor.Ragnarok.2017.1080p.BluRay.AVC.DTS-HD.MA… 10:46
8517 [한글] 알파독 Alpha.Dog.2006.1080p.BluRay.x264-CULTHD 02:45
8516 [한글] 마지막 한 걸음까지 As.Far.As.My.Feet.Will.Carry.Me.2001.DVDRip.… 02:43
8515 [한글] 크리샤 Krisha.2015.1080p.WEB-DL.DD5.1.H264-FGT+720p.WEB-DL… 02.21
8514 [한글] 쿵푸 요가 Kung.Fu.Yoga.2017.CHINESE.1080p+720p.BluRay.H264.… 02.21
8513 [한글] 튤립피버Tulip.Fever.2017.720p.BRRip.HEVC.700MB.MkvCage.mkv 02.21
8512 [한글] 브롱스 이야기 A.Bronx.Tale.1993.1080p.BluRay.X264-AMIABLE 02.21
8511 [한글] 더 퍼펙트 가이 The Perfect Guy 2015 1080p BluRay x264 DTS-JYK 02.21
8510 [한글] 늑대와 춤을 Dances.With.Wolves.1990.DC.20th.Anniv.1080p.BluR… 댓글+1 02.21
8509 [한글] JFK 1991 감독판 jfk.1991.director.s.cut.1080p.bluray.x264.… 02.21
8508 [한글] 내츄럴 The Natural (1984) (1080p BluRay x265 HEVC 10bit AA… 02.21
8507 [한글] 크리샤 Krisha.2015.720p.WEB-DL.XviD.AC3-FGT 02.21
8506 [한글] 부기맨 2 Boogeyman.II.2007.720p+1080p.BluRay.H264.AAC-RARB… 02.21