영화 > 외국영화

[한글] 닌자의 나라 Mumon The Land of Stealth 2017 JAPANESE 1080p BRRip x264 A…

Total 2.5G

1. For more Exclusive & Quality Stuff Visit www.hon3yhd.to.txt (163byte)
2. Mumon The Land of Stealth 2017 JAPANESE 1080p BRRip x264 AAC - Hon3y.mkv (2.5G)
3. Torrent Seed By www.cyber-planet.in.txt (94byte)
f739f02995469261aa5a9bca06374e41_1518169668_2664.jpg

Mumon The Land of Stealth 2017 JAPANESE 1080p BRRip x264 AAC - Hon3y 


Source:Wiki 
Format : Matroska 
Format version : Version 4 / Version 2 
File size : 2.47 GiB 
Duration : 2 h 4 min 
Overall bit rate : 2 831 kb/s 
Movie name : Mumon.The.Land.of.Stealth.2017 - Hon3y 


Video 
ID : 1 
Format : AVC 
Format/Info : Advanced Video Codec 
Format profile :
Format settings, CABAC : Yes 
Format settings, RefFrames : 5 frames 
Codec ID : V_MPEG4/ISO/AVC 
Duration : 2 h 4 min 
Bit rate : 2 500 kb/s 
Width : 1 920 pixels 
Height : 800 pixels 
Display aspect ratio : 2.40:1 
Frame rate mode : Constant 
Frame rate : 23.976 (24000/1001) FPS 
Language : English 
Default : Yes 
Forced : No 
Color range : Limited 
Color primaries : BT.709 
Transfer characteristics : BT.709 
Matrix coefficients : BT.709 

Audio 
ID : 2 
Format : AAC 
Format/Info : Advanced Audio Codec 
Format profile : LC 
Codec ID : A_AAC 
Duration : 2 h 4 min 
Bit rate : 320 kb/s 
Channel(s) : 6 channels 
Channel positions : Front: L C R, Side: L R, LFE 
Sampling rate : 48.0 kHz 
Frame rate : 46.875 FPS (1024 SPF) 
Compression mode : Lossy 
Delay relative to video : 9 ms 
Stream size : 285 MiB (11%) 
Language : Japanese 
Default : Yes 
Forced : No 

Text 
ID : 3 
Format : ASS 
Codec ID : S_TEXT/ASS 
Codec ID/Info : Advanced Sub Station Alpha 
Duration : 2 h 4 min 
Bit rate : 74 b/s 
Count of elements : 1329 
Compression mode : Lossless 
Stream size : 68.2 KiB (0%) 
Language : Chinese 
Default : Yes 
Forced : No 


닌자의 나라 이가, 시모야마 가문의 적자 시모야마 헤이베(스즈키 료헤이)는 이가를 공격하는 오다 노부나가의 차남 오다 노부가츠에게 화평을 신청하러 갔다가, 닌자의 삶에 염증을 느끼고 노부가츠에게 귀의해 버린다. 그후 이가를 배신하여, 이가를 공격하자는 헤이베, 노부가치는 그의 권고를 받아들여 이가에 오다의 성을 짓게 된다.
하지만 성이 다 지어지자, 오다를 배신하고 성을 불태우는 이가의 닌자들. 그 일은 노부가츠의 심기를 건드리게 되고, 오다군은 이가를 공격하기로 한다. 결전의 그날, 막상 전투는 다가오지만 이가의 닌자들은 돈이 되지 않는 전쟁을 피해 달아가기 시작하고, 이가에는 절반의 닌자만이 남아 결전을 맞이하게 되는데…


      

자막 출처: 리아, 은류, 졍


토렌트는 토렌트 퐁! [한글] 닌자의 나라 Mumon The Land of Stealth 2017 JAPANESE 1080p BRRip x264 AAC - Hon3y 다운로드 , 토렌트 , 토렌트 퐁 , 토렌트퐁

한글 ,닌자의 ,나라 ,토렌트퐁

Comments

번호 제목 날짜 마그넷
21550 올리버 트위스트 Oliver.Twist.2005.1080p.BluRay.x264.AAC-RARBG 01:02
21549 허리케인 Hurricane.2018.720p+1080p.BluRay.H264.AAC-RARBG 01:00
21548 미트볼 머신: 고도쿠 Meatball.Machine.Kodoku.2017.JAPANESE.720p+1080p… 10.22
21547 배니싱 포인트 Vanishing.Point.1971.1080p.BluRay.x264-VOA/720p.BluR… 10.22
21546 롤라 런 Run.Lola.Run.1998.1080p.BluRay.x264-SECTOR7/720p+1080p.… 10.22
21545 언더월드 1 _ Underworld 2003 DC (1080p Bluray x265 HEVC 10bit AA… 10.22
21544 마지막 전투.Le.Dernier.Combat.The.Last.Battle.1983.FRENCH)자막이 필요 … 10.22
21543 페이퍼 맨 Paper.Man.2009.LIMITED.1080p.BluRay.x264-SECTOR7/1080p… 10.22
21542 마이티 하트 A.Mighty.Heart.2007.1080p.BluRay.x264.DD5.1-FGT 한글자막 10.22
21541 너티 프로페서 The.Nutty.Professor.1996.1080p.BluRay.x264.DTS-FGT/1… 10.22
21540 쿤둔 Kundun.1997.1080p.BluRay.x264.DTS-FGT 한글자막 10.22
21539 평화로운 전사 Peaceful.Warrior.2006.1080p.BluRay.x264.DD5.1-FGT/72… 10.22
21538 화이트 칙스 White.Chicks.2004.720p.WEBRiP.DD5.1.x264-LEGi0N 한글자막 10.22
21537 최후의 Z Z.For.Zachariah.2015.LIMITED.1080p.BluRay.x264.DTS-iNF… 10.22
21536 크로우 The.Crow.1994.BluRay.1080p.x265.10bit-z97 한글자막 10.22
21535 어두움 The.Dark.2018.720p.WEB-DL.H264.AC3-EVO 무자막 10.22
21534 올리버 트위스트 Oliver.Twist.2005.1080p.BluRay.x264.DTS-FGT/AAC-RAR… 10.22
21533 매들린스 매들린 Madelines.Madeline.2018.1080p.WEB-DL.DD5.1.H264-FGT… 10.22
21532 허리케인 Hurricane.2018.720p+1080p.BluRay.H264.AAC-RARBG | 1080p… 10.22
21531 미트볼 머신: 고도쿠 蠱毒 ミートボールマシン Meatball.Machine.Kodoku.2017.1080p.… 10.22
21530 바이러스 Virus.1999.720p+1080p.BluRay.H264.AAC-RARBG 한글자막 10.22
21529 취권 Drunken.Master.1978.1080p.BluRay.x264-USURY[rarbg] [10.3G… 10.22
21528 레드 테일스 Red.Tails.2012.720p+1080p.BluRay.x264.YIFY 한글자막 10.22
21527 세븐업 수사대 The Seven-Ups (1973) TT 1080p BluRay x265 HEVC AAC-S… 10.22
21526 톱 햇 (Top Hat .1935.1080p.BluRay.H264.AAC-RARBG) 진정한 춤꾼들의 향연 … 10.22
21525 자유의 댄스 Footloose.1984.720p+1080p.BluRay.x264-[YTS.AM] 한글자막 10.22
21524 던 오브 킹덤 Siam Yuth The Dawn of the Kingdom. 2015.1080p.KOR.FH… 10.22
21523 덩케르크 Dunkirk. 2017.720p.KOR.HDRip.H264.AAC-H2O 자체한글 10.22
21522 제일브레이크 Jailbreak. 2017.1080p.KOR.FHDRip.H264.AAC-H2O 자체한글 10.22
21521 하드데이 The.Expatriate.2012.720p+1080p.BluRay.H264.AAC-RARBG 한글… 10.22