영화 > 외국영화

[한글] 닌자의 나라 Mumon The Land of Stealth 2017 JAPANESE 1080p BRRip x264 A…

Total 2.5G

1. For more Exclusive & Quality Stuff Visit www.hon3yhd.to.txt (163byte)
2. Mumon The Land of Stealth 2017 JAPANESE 1080p BRRip x264 AAC - Hon3y.mkv (2.5G)
3. Torrent Seed By www.cyber-planet.in.txt (94byte)
f739f02995469261aa5a9bca06374e41_1518169668_2664.jpg

Mumon The Land of Stealth 2017 JAPANESE 1080p BRRip x264 AAC - Hon3y 


Source:Wiki 
Format : Matroska 
Format version : Version 4 / Version 2 
File size : 2.47 GiB 
Duration : 2 h 4 min 
Overall bit rate : 2 831 kb/s 
Movie name : Mumon.The.Land.of.Stealth.2017 - Hon3y 


Video 
ID : 1 
Format : AVC 
Format/Info : Advanced Video Codec 
Format profile :
Format settings, CABAC : Yes 
Format settings, RefFrames : 5 frames 
Codec ID : V_MPEG4/ISO/AVC 
Duration : 2 h 4 min 
Bit rate : 2 500 kb/s 
Width : 1 920 pixels 
Height : 800 pixels 
Display aspect ratio : 2.40:1 
Frame rate mode : Constant 
Frame rate : 23.976 (24000/1001) FPS 
Language : English 
Default : Yes 
Forced : No 
Color range : Limited 
Color primaries : BT.709 
Transfer characteristics : BT.709 
Matrix coefficients : BT.709 

Audio 
ID : 2 
Format : AAC 
Format/Info : Advanced Audio Codec 
Format profile : LC 
Codec ID : A_AAC 
Duration : 2 h 4 min 
Bit rate : 320 kb/s 
Channel(s) : 6 channels 
Channel positions : Front: L C R, Side: L R, LFE 
Sampling rate : 48.0 kHz 
Frame rate : 46.875 FPS (1024 SPF) 
Compression mode : Lossy 
Delay relative to video : 9 ms 
Stream size : 285 MiB (11%) 
Language : Japanese 
Default : Yes 
Forced : No 

Text 
ID : 3 
Format : ASS 
Codec ID : S_TEXT/ASS 
Codec ID/Info : Advanced Sub Station Alpha 
Duration : 2 h 4 min 
Bit rate : 74 b/s 
Count of elements : 1329 
Compression mode : Lossless 
Stream size : 68.2 KiB (0%) 
Language : Chinese 
Default : Yes 
Forced : No 


닌자의 나라 이가, 시모야마 가문의 적자 시모야마 헤이베(스즈키 료헤이)는 이가를 공격하는 오다 노부나가의 차남 오다 노부가츠에게 화평을 신청하러 갔다가, 닌자의 삶에 염증을 느끼고 노부가츠에게 귀의해 버린다. 그후 이가를 배신하여, 이가를 공격하자는 헤이베, 노부가치는 그의 권고를 받아들여 이가에 오다의 성을 짓게 된다.
하지만 성이 다 지어지자, 오다를 배신하고 성을 불태우는 이가의 닌자들. 그 일은 노부가츠의 심기를 건드리게 되고, 오다군은 이가를 공격하기로 한다. 결전의 그날, 막상 전투는 다가오지만 이가의 닌자들은 돈이 되지 않는 전쟁을 피해 달아가기 시작하고, 이가에는 절반의 닌자만이 남아 결전을 맞이하게 되는데…


      

자막 출처: 리아, 은류, 졍


토렌트는 토렌트 퐁! [한글] 닌자의 나라 Mumon The Land of Stealth 2017 JAPANESE 1080p BRRip x264 AAC - Hon3y 다운로드 , 토렌트 , 토렌트 퐁 , 토렌트퐁

한글 ,닌자의 ,나라 ,토렌트퐁

Comments

번호 제목 날짜 마그넷
18383 [영자]더 옐로우 버즈 The.Yellow.Birds.2017.720p+1080p.10bit.BluRay.6… 19:50
18382 그들이 진심으로 엮을 때 (彼らが本気で編むときは) Close Knit.2017.1080p.BluRay.x26… 19:50
18381 무 다운 어 다크 홀 Down.a.Dark.Hall.2018.1080p.WEB DL.DD5.1.H264 CM… 19:50
18380 바이킹 데스티니 Viking.Destiny.2018.720p+1080p.BluRay.x264 YTS.AM 무… 19:50
18379 건지 감자껍질파이 북클럽 The Guernsey Literary and Potato Peel Pie Soci… 19:50
18378 단신남녀2 Dont.Go.Breaking.My.Heart.2.2014.1080p.BluRay.X264-KaK… 19:00
18377 퍼스트 리폼드 First.Reformed.2017.1080p.BluRay.x264.DTS-HD.MA.5.1-… 18:32
18376 우리 딸은 못 말려 Irreconcilable.Differences.1984.1080p.BluRay.x264… 17:37
18375 워싱턴 스퀘어 Washington Square.1997.720p.WEB-DL.H264-HDCLUB 한글자막 15:06
18374 건지 감자껍질파이 북클럽 The Guernsey Literary and Potato Peel Pie Soci… 14:50
18373 아드바크 Aardvark.2017.BDRip.x264 LPD 영문자막 13:50
18372 아드바크 Aardvark.2017.720p/1080p.BluRay.H264.AAC RARBG 영문자막 13:50
18371 다운 어 다크 홀 Down.a.Dark.Hall.2018.720p.WEB DL.2CH.x265.HEVC PS… 12:50
18370 더 옐로우 버즈 The.Yellow.Birds.2017.720p+1080p.10bit.BluRay.6CH.x… 12:50
18369 [드라마/멜로] 섹스 주식회사 Cougars.Inc.2011.1080p.KOR.FHDRip.H264.AAC-… 12:50
18368 [3D] 램페이지 Rampage (2018).Bluray.1080p.Half-SBS.DTSHD-MA 7.1 … 12:49
18367 건지 감자껍질파이 북클럽 The Guernsey Literary and Potato Peel Pie Soci… 12:39
18366 슈퍼걸 (국제판) Supergirl.1984.International.Cut.720p & 1080p.BluR… 12:12
18365 그녀의 인생은 잘못이 없어.Side.Job.2017.BD720P+1080P.X264.AAC.Japanese 11:50
18364 키드냅.Kidnap.2017.1080p.KOR.FHDRip.H264.AAC NOX 11:50
18363 [드라마/멜로] 사랑은 은반 위에 The.Cutting.Edge.1992.BluRay.1080p.x265.1… 11:50
18362 [드라마/멜로] 그녀의 인생은 잘못이 없어 彼女の人生は間違いじゃない Side.Job.2017.BD720P+1… 11:50
18361 아드바크 Aardvark.2017.BDRip.x264-LPD 영문자막 11:41
18360 신타 神打 The.Spiritual.Boxer.1975.720p & 1080p.BluRay.x264-GHOU… 11:35
18359 아드바크 Aardvark.2017.720p/1080p.BluRay.H264.AAC-RARBG 영문자막 11:30
18358 다운 어 다크 홀 Down.a.Dark.Hall.2018.720p.WEB-DL.2CH.x265.HEVC-PS… 11:25
18357 동사서독 리덕스.Aka.Ashes.of.Time.Redux.2008.1080p.BluRay.x264.Hi10… 11:13
18356 더 옐로우 버즈 The.Yellow.Birds.2017.720p+1080p.10bit.BluRay.6CH.x… 11:03
18355 그들이 진심으로 엮을 때 (彼らが本気で編むときは) Close Knit.2017.1080p.BluRay.x26… 10:50
18354 아드바크 Aardvark.2017.720p.BluRay.x264 CiNEFiLE 영문자막 10:50