영화 > 외국영화

[한글] 닌자의 나라 Mumon The Land of Stealth 2017 JAPANESE 1080p BRRip x264 A…

Total 2.5G

1. For more Exclusive & Quality Stuff Visit www.hon3yhd.to.txt (163byte)
2. Mumon The Land of Stealth 2017 JAPANESE 1080p BRRip x264 AAC - Hon3y.mkv (2.5G)
3. Torrent Seed By www.cyber-planet.in.txt (94byte)
f739f02995469261aa5a9bca06374e41_1518169668_2664.jpg

Mumon The Land of Stealth 2017 JAPANESE 1080p BRRip x264 AAC - Hon3y 


Source:Wiki 
Format : Matroska 
Format version : Version 4 / Version 2 
File size : 2.47 GiB 
Duration : 2 h 4 min 
Overall bit rate : 2 831 kb/s 
Movie name : Mumon.The.Land.of.Stealth.2017 - Hon3y 


Video 
ID : 1 
Format : AVC 
Format/Info : Advanced Video Codec 
Format profile :
Format settings, CABAC : Yes 
Format settings, RefFrames : 5 frames 
Codec ID : V_MPEG4/ISO/AVC 
Duration : 2 h 4 min 
Bit rate : 2 500 kb/s 
Width : 1 920 pixels 
Height : 800 pixels 
Display aspect ratio : 2.40:1 
Frame rate mode : Constant 
Frame rate : 23.976 (24000/1001) FPS 
Language : English 
Default : Yes 
Forced : No 
Color range : Limited 
Color primaries : BT.709 
Transfer characteristics : BT.709 
Matrix coefficients : BT.709 

Audio 
ID : 2 
Format : AAC 
Format/Info : Advanced Audio Codec 
Format profile : LC 
Codec ID : A_AAC 
Duration : 2 h 4 min 
Bit rate : 320 kb/s 
Channel(s) : 6 channels 
Channel positions : Front: L C R, Side: L R, LFE 
Sampling rate : 48.0 kHz 
Frame rate : 46.875 FPS (1024 SPF) 
Compression mode : Lossy 
Delay relative to video : 9 ms 
Stream size : 285 MiB (11%) 
Language : Japanese 
Default : Yes 
Forced : No 

Text 
ID : 3 
Format : ASS 
Codec ID : S_TEXT/ASS 
Codec ID/Info : Advanced Sub Station Alpha 
Duration : 2 h 4 min 
Bit rate : 74 b/s 
Count of elements : 1329 
Compression mode : Lossless 
Stream size : 68.2 KiB (0%) 
Language : Chinese 
Default : Yes 
Forced : No 


닌자의 나라 이가, 시모야마 가문의 적자 시모야마 헤이베(스즈키 료헤이)는 이가를 공격하는 오다 노부나가의 차남 오다 노부가츠에게 화평을 신청하러 갔다가, 닌자의 삶에 염증을 느끼고 노부가츠에게 귀의해 버린다. 그후 이가를 배신하여, 이가를 공격하자는 헤이베, 노부가치는 그의 권고를 받아들여 이가에 오다의 성을 짓게 된다.
하지만 성이 다 지어지자, 오다를 배신하고 성을 불태우는 이가의 닌자들. 그 일은 노부가츠의 심기를 건드리게 되고, 오다군은 이가를 공격하기로 한다. 결전의 그날, 막상 전투는 다가오지만 이가의 닌자들은 돈이 되지 않는 전쟁을 피해 달아가기 시작하고, 이가에는 절반의 닌자만이 남아 결전을 맞이하게 되는데…


      

자막 출처: 리아, 은류, 졍


토렌트는 토렌트 퐁! [한글] 닌자의 나라 Mumon The Land of Stealth 2017 JAPANESE 1080p BRRip x264 AAC - Hon3y 다운로드 , 토렌트 , 토렌트 퐁 , 토렌트퐁

한글 ,닌자의 ,나라 ,토렌트퐁

Comments

번호 제목 날짜 마그넷
AD 유럽현지법인 대형 리니지프리서버 아데나시스템 로즈서버
11865 더 큐어드 The.Cured.2018.1080p.WEB-DL.H264.AC3-EVO 무자막 05.14
11864 본 길티 Born.Guilty.2017.720p.WEB-DL.DD5.1.x264-iFT 무자막 05.14
11863 리벤지 Revenge.2017.720p.WEB-DL.DD5.1.x264-iFT 한글자막 05.14
11862 악령의 리사 Deadly.Blessing.1981.1080p.BluRay.x264-GECKOS 한글자막 05.14
11861 3 나잇 인 더 데저트 3 Nights In The Desert (2014) [1080p] [YTS.AG] … 05.14
11860 #호러 #Horror (2015) [1080p] [YTS.AG] 무자막 05.14
11859 귀여운 악마 Dutch.1991.720+1080p.BluRay.H264.AAC-RARBG/1080p.BluR… 05.14
11858 점핑 더 브룸 Jumping.The.Broom.2011.720+1080p.BluRay.H264.AAC-RAR… 05.14
11857 [ 코드 46 ] 2003.1080p.BluRay 한글자막 05.13
11856 십대 예수님 멍청이의 고백 Confessions.of.a.Teenage.Jesus.Jerk.2017.720p… 05.13
11855 퍼펙트 가이 The.Perfect.Guy.2015.1080p.BluRay.x264-GECKOS 한글자막 05.13
11854 엘비스와 대통령 Elvis.and.Nixon.2016.720p+1080p.BluRay.H264.AAC-RAR… 05.13
11853 라스트 파이브 이어즈 The.Last.5.Years.2014.720p+1080p.BluRay.H264.AAC… 05.13
11852 아이즈 오브 마이 마더 The.Eyes.of.My.Mother.2016.720p+1080p.BluRay.H2… 05.13
11851 텀 라이프 Term.Life.2016.720p+1080p.BluRay.H264.AAC-RARBG 한글자막 05.13
11850 삼손 Samson.2018.720p&1080p.10bit.BluRay.6CH.x265.HEVC-PSA 한글자… 댓글+1 05.13
11849 빙봉협: 중생지문 冰封:重生之門 Iceman 2014 BluRay 720p & 1080p x264 - YTS… 05.13
11848 몽키킹 3: 서유기 여인왕국 西游記女兒國 The Monkey King 3 (2018) 720p BRRip 1… 05.13
11847 블랙코드 Blackhat.2015.720p+1080p.BluRay.H264.AAC-RARBG 한글자막 05.13
11846 터미널 Terminal 2018 1080p Webrip HEVC 6CH Omikron 무자막 05.13
11845 에너미 라인스 Behind.Enemy.Lines.2001.720p+1080p.BluRay.H264.AAC-R… 05.13
11844 21 (2008) (1080p BluRay x265 HEVC 10bit AAC 5.1 Tigole) [QxR… 05.13
11843 수퍼노바 Supernova (2000) (1080p BluRay x265 HEVC 10bit AAC 5.1 … 05.13
11842 대통령의 연인 The American President (1995) (1080p BluRay x265 HEV… 05.13
11841 소곤소곤 별 The.Whispering.Star.2015.720p+1080p.BluRay.x264-USURY… 05.13
11840 엘렉트라 Elektra.2005.DC.720p+1080p.BluRay.H264.AAC-RARBG 한글자막 05.13
11839 헐크 Hulk.2003.1080p.BluRay.x264.DTS-FGT 한글자막 05.13
11838 서초패왕 King.Of.Western.Chu.1994.DVDRip.Xvid-HanSytle 한글자막직공 05.13
11837 저지 캅: 테러 어택 Rz-9 (2015) [1080p] [YTS.AG] 05.13
11836 4차원 도시 Millennium (1989) [1080p] [YTS.AG] 05.13